<?xml version="1.0" standalone="no"?>
<!DOCTYPE svg PUBLIC "-//W3C//DTD SVG 1.1//EN" "http://www.w3.org/Graphics/SVG/1.1/DTD/svg11.dtd" >
<svg xmlns="http://www.w3.org/2000/svg">
<metadata>
Created by FontForge 20120731 at Mon Aug  8 10:52:27 2016
 By admin
</metadata>
<defs>
<font id="iconfont" horiz-adv-x="1024" >
  <font-face 
    font-family="iconfont"
    font-weight="500"
    font-stretch="normal"
    units-per-em="1024"
    panose-1="2 0 6 3 0 0 0 0 0 0"
    ascent="896"
    descent="-128"
    x-height="792"
    bbox="-0.04 -207 1424 896.667"
    underline-thickness="50"
    underline-position="-100"
    unicode-range="U+0078-E642"
  />
<missing-glyph horiz-adv-x="374" 
d="M34 0v682h272v-682h-272zM68 34h204v614h-204v-614z" />
    <glyph glyph-name=".notdef" horiz-adv-x="374" 
d="M34 0v682h272v-682h-272zM68 34h204v614h-204v-614z" />
    <glyph glyph-name=".null" horiz-adv-x="0" 
 />
    <glyph glyph-name="nonmarkingreturn" horiz-adv-x="341" 
 />
    <glyph glyph-name="x" unicode="x" horiz-adv-x="1001" 
d="M281 543q-27 -1 -53 -1h-83q-18 0 -36.5 -6t-32.5 -18.5t-23 -32t-9 -45.5v-76h912v41q0 16 -0.5 30t-0.5 18q0 13 -5 29t-17 29.5t-31.5 22.5t-49.5 9h-133v-97h-438v97zM955 310v-52q0 -23 0.5 -52t0.5 -58t-10.5 -47.5t-26 -30t-33 -16t-31.5 -4.5q-14 -1 -29.5 -0.5
t-29.5 0.5h-32l-45 128h-439l-44 -128h-29h-34q-20 0 -45 1q-25 0 -41 9.5t-25.5 23t-13.5 29.5t-4 30v167h911zM163 247q-12 0 -21 -8.5t-9 -21.5t9 -21.5t21 -8.5q13 0 22 8.5t9 21.5t-9 21.5t-22 8.5zM316 123q-8 -26 -14 -48q-5 -19 -10.5 -37t-7.5 -25t-3 -15t1 -14.5
t9.5 -10.5t21.5 -4h37h67h81h80h64h36q23 0 34 12t2 38q-5 13 -9.5 30.5t-9.5 34.5q-5 19 -11 39h-368zM336 498v228q0 11 2.5 23t10 21.5t20.5 15.5t34 6h188q31 0 51.5 -14.5t20.5 -52.5v-227h-327z" />
    <glyph glyph-name="uniE600" unicode="&#xe600;" 
d="M125 771h341v-341h-341v341zM568 771h330v-341h-330v341zM125 326h341v-329h-341v329zM568 326h330v-329h-330v329z" />
    <glyph glyph-name="uniE601" unicode="&#xe601;" 
d="M881 653h-740l-77 -201q0 -45 32.5 -77.5t78.5 -32.5q47 0 80 32t33 78q0 -45 32.5 -77.5t78.5 -32.5q47 0 80 32t33 78q0 -45 32.5 -77.5t78.5 -32.5q47 0 79.5 32t32.5 78q0 -45 33 -77.5t79 -32.5q47 0 80 32t33 78zM819 307v-256h-614v256h-26h-38v-269
q0 -17 15.5 -34t32.5 -17h644q17 0 33 17t16 34v269h-51h-12zM881 654zM192 704h640q16 0 27 11t11 27.5t-11 27.5t-27 11h-640q-16 0 -27 -11t-11 -27.5t11 -27.5t27 -11z" />
    <glyph glyph-name="uniE602" unicode="&#xe602;" 
d="M393 384l348 336q16 15 16 36t-15.5 36t-37.5 15t-37 -15l-385 -372q-15 -15 -15 -36t15 -36l385 -372q15 -15 37 -15t37.5 15t15.5 36t-16 36z" />
    <glyph glyph-name="uniE603" unicode="&#xe603;" horiz-adv-x="1000" 
d="M1000 461l-191 -176v114h-314v124h314v114zM674 855h-576l307 -130v-616h269v248h45v-290h-314v-171l-405 171v829h719v-332h-45v291zM674 855z" />
    <glyph glyph-name="uniE604" unicode="&#xe604;" 
d="M443 201h-70q-16 0 -27.5 -8.5t-11 -21.5t11.5 -22t27 -9h70q16 0 27 9t11 22t-11 21.5t-27 8.5zM897 103v622q0 21 -15 35t-36 14h-203q-19 0 -33 -11t-18 -29q-6 -27 -29 -45t-52.5 -18t-53 18t-28.5 45q-4 18 -18.5 29t-32.5 11h-203q-21 0 -36.5 -14t-15.5 -35v-660
l1 -1v-21q0 -21 15 -35t36 -14h671q21 0 36 14t15 35v59v1zM814 44h-600q-22 0 -30.5 8t-8.5 29v21v1v38q1 0 2.5 -0.5t2.5 -0.5h70q16 0 27 9t11 22t-11 21.5t-27 8.5h-70h-2h-3v498q0 11 8 18.5t18 7.5l158 -1q18 0 24 -16q14 -39 49 -63t78.5 -24t78.5 24.5t49 62.5
q6 17 24 17h157q11 0 18.5 -7.5t7.5 -18.5v-499h-3q-3 1 -4 1h-70q-16 0 -27 -8.5t-11 -21.5t11 -22t27 -9h70q2 0 5 1h2v-51q0 -23 -6.5 -34.5t-24.5 -11.5zM640 201h-69q-16 0 -27.5 -8.5t-11.5 -21.5t11.5 -22t27.5 -9h69q16 0 27.5 9t11 22t-11.5 21.5t-27 8.5zM529 252
h1v90h85h6v1q15 5 15 21q0 9 -6 15t-15 6h-85v34h85h6v1q15 5 15 21q0 9 -6 15t-15 6h-85v19l89 86l4 4l-1 1q3 4 3 10q1 9 -5 16q-6 6 -15 6.5t-16 -5.5l-80 -79l-85 84q-6 5 -15 4.5t-15 -6.5q-11 -12 -2 -26l-1 -1l96 -93v-20h-91v-1q-15 -5 -15 -20.5t15 -20.5v-1h91
v-34h-91v-1q-15 -4 -15 -20t15 -21v-1h91v-83v-7h1q5 -15 21 -15t20 15z" />
    <glyph glyph-name="uniE605" unicode="&#xe605;" 
d="M946 489q-6 18 -24 21l-263 40l-118 252q-8 18 -28 18t-28 -18l-119 -251l-264 -40q-19 -3 -24.5 -21t7.5 -31l191 -197l-46 -277q-3 -19 13 -30.5t33 -1.5l235 129l235 -130q7 -4 15 -4q10 0 18 6q16 11 13 30l-45 277l192 196q13 14 7 32zM692 294q-11 -12 -8 -27
l37 -230l-194 108q-15 8 -30 0l-195 -107l38 230q3 15 -8 26l-161 166l220 32q3 0 6 1q13 5 18 16l98 207l96 -207q7 -15 24 -18l219 -34z" />
    <glyph glyph-name="uniE606" unicode="&#xe606;" 
d="M965 239h-70q0 80 -17.5 145.5t-43 107.5t-60.5 74t-64 48t-60 27v58q0 24 -17.5 41.5t-41.5 17.5h-171q-24 0 -41.5 -17.5t-17.5 -41.5v-61q-31 -12 -59.5 -28.5t-62 -49t-58 -74t-40.5 -106t-16 -141.5h-66q-24 0 -41.5 -17t-17.5 -42v-124q0 -25 17.5 -42.5
t41.5 -17.5h171q24 0 41.5 17.5t17.5 42.5v124q0 25 -17.5 42t-41.5 17h-66q0 68 13 124.5t33 94t47.5 67t52 45.5t51.5 27v-23q0 -24 17.5 -41.5t41.5 -17.5h66v-276h-66q-24 0 -41.5 -17t-17.5 -42v-124q0 -25 17.5 -42.5t41.5 -17.5h171q24 0 41.5 17.5t17.5 42.5v124
q0 25 -17.5 42t-41.5 17h-66v276h66q24 0 41.5 17.5t17.5 41.5v26q27 -10 52 -25.5t54.5 -44.5t50 -67t34.5 -96t14 -128h-61q-24 0 -41.5 -17t-17.5 -42v-124q0 -25 17.5 -42.5t41.5 -17.5h171q24 0 41.5 17.5t17.5 42.5v124q0 25 -17.5 42t-41.5 17z" />
    <glyph glyph-name="uniE607" unicode="&#xe607;" 
d="M511 882q-136 0 -251 -57.5t-181.5 -156t-66.5 -214.5q0 -97 50 -184.5t142 -149.5q13 -9 27.5 -6t22.5 15t5.5 26.5t-15.5 23.5q-77 52 -119 124t-42 151q0 97 57.5 179t156 130t214.5 48t214.5 -48t156 -130t57.5 -178.5t-57.5 -178.5t-156 -130t-214.5 -48h-3l-3 -1
q-13 2 -24.5 -4t-15.5 -19q-10 -28 -105 -82q19 65 4 88q-12 18 -34 18q-14 0 -24.5 -10.5t-10.5 -25.5q0 -9 5 -18q-7 -36 -37 -111q-9 -22 8 -39q10 -10 25 -10q7 0 14 3q32 14 64.5 31t78.5 49t66 60q134 2 247 59.5t178.5 155.5t65.5 212q0 116 -67 214.5t-182 156
t-250 57.5zM320 522q-27 0 -46 -19t-19 -45.5t19 -45.5t45.5 -19t45.5 19t19 45.5t-19 45.5t-45 19zM512 522q-27 0 -45.5 -19t-18.5 -45.5t18.5 -45.5t45 -19t45.5 19t19 45.5t-19 45.5t-45 19zM704 522q-26 0 -45 -19t-19 -45.5t19 -45.5t45.5 -19t45 19t18.5 45.5
t-18.5 45.5t-45.5 19z" />
    <glyph glyph-name="uniE608" unicode="&#xe608;" 
d="M915 689q-24 26 -59 26h-608l-2 14q-4 32 -29.5 54.5t-57.5 22.5h-39q-12 0 -20 -8.5t-8 -20.5t8 -20.5t20 -8.5h39q11 0 19.5 -8t10.5 -20l29 -168l51 -362q4 -32 29 -54.5t57 -22.5h491q12 0 20.5 8.5t8.5 20.5t-8.5 20.5t-20.5 8.5h-491q-10 0 -18.5 8t-10.5 19l-4 30
l481 36q32 0 57 22t29 54l47 273q6 45 -21 76zM362.5 80q-24.5 0 -41.5 -17.5t-17 -41.5t17 -41.5t41.5 -17.5t42 17.5t17.5 41.5t-17.5 41.5t-42 17.5zM786.5 80q-24.5 0 -42 -17.5t-17.5 -41.5t17.5 -41.5t42 -17.5t41.5 17.5t17 41.5t-17 41.5t-41.5 17.5z" />
    <glyph glyph-name="uniE609" unicode="&#xe609;" 
d="M939 412l-381 376q-4 5 -12 10q-15 10 -32 10t-32 -10q-8 -5 -12 -11l-380 -375q-10 -10 -10 -24.5t10 -23.5q19 -19 46 7l25 26l42 40v-390q0 -36 26 -61.5t63 -25.5h149v248q0 15 10 25t25 10h77q15 0 25 -10t10 -25v-248h149q37 0 63 25.5t26 61.5v388l67 -67
q18 -11 30 -11q9 0 16 7q10 9 10 23.5t-10 24.5z" />
    <glyph glyph-name="uniE60A" unicode="&#xe60a;" 
d="M900 -2q-6 81 -44.5 153.5t-102.5 122.5l-5 4q-8 4 -16 4q-32 0 -32 -25q0 -14 12 -24l4 -3q109 -78 121 -233v-1v-2q0 -13 9 -22.5t22 -9.5t22 9t9 21h1v6zM799 524q0 117 -84.5 200t-203 83t-202.5 -83t-84 -200q0 -63 27 -119.5t76 -96.5q-88 -47 -142.5 -131
t-61.5 -183v-5v-1v-1q0 -11 8 -18.5t19 -7.5t18.5 7.5t7.5 18.5v1h1v6q7 93 62 169t140 110q69 -32 132 -32q65 0 124 28l29 17l24 16q52 40 81 98.5t29 123.5z" />
    <glyph glyph-name="uniE60B" unicode="&#xe60b;" 
d="M898 409q0 51 -53 92q53 41 53 92q0 39 -31.5 72.5t-90.5 57.5q-110 45 -263 45t-263 -45q-59 -24 -90.5 -57.5t-31.5 -72.5q0 -51 53 -92q-53 -41 -53 -92q0 -50 52 -91q-52 -40 -52 -90q0 -39 31.5 -72.5t90.5 -58.5q110 -45 263 -45t263 45q59 25 90.5 58.5t31.5 72.5
q0 50 -52 90q52 41 52 91zM273 670q99 40 240.5 40t240.5 -40q40 -17 63 -37.5t23 -39.5t-23 -39.5t-63 -37.5q-99 -40 -240.5 -40t-240.5 40q-41 17 -64 37.5t-23 39.5t23 39.5t64 37.5zM250 463q110 -45 263 -45t263 45q7 2 14 6v-1q50 -29 50 -59q0 -19 -23 -39.5
t-63 -36.5q-99 -41 -240.5 -41t-240.5 41q-41 16 -64 36.5t-23 39.5q0 30 51 59q7 -3 13 -5zM840 228q0 -20 -23 -40t-63 -37q-99 -41 -240.5 -41t-240.5 41q-41 17 -64 37t-23 40q0 29 49 58q8 -4 15 -7q110 -45 263 -45t263 45q8 3 16 7q48 -29 48 -58z" />
    <glyph glyph-name="uniE60C" unicode="&#xe60c;" 
d="M247 243zM512 831q-96 0 -177.5 -47t-129 -128.5t-47.5 -176.5q0 -134 90 -236l230 -289q13 -17 32.5 -17t32.5 17l229 289q93 101 93 236q0 95 -47 176.5t-128.5 128.5t-177.5 47zM511.5 302q-73.5 0 -125 51.5t-51.5 125t51.5 125t125 51.5t125.5 -51.5t52 -125
t-52 -125t-125.5 -51.5z" />
    <glyph glyph-name="uniE60D" unicode="&#xe60d;" 
d="M512 -64q-185 0 -316.5 131.5t-131.5 316.5t131.5 316.5t316.5 131.5t316.5 -131.5t131.5 -316.5t-131.5 -316.5t-316.5 -131.5zM512 768q-159 0 -271.5 -112.5t-112.5 -271.5t112.5 -271.5t271.5 -112.5t271.5 112.5t112.5 271.5t-112.5 271.5t-271.5 112.5z" />
    <glyph glyph-name="uniE60E" unicode="&#xe60e;" 
d="M512 830q-91 0 -173.5 -35.5t-142 -95t-95 -142t-35.5 -173.5t35.5 -173.5t95 -142t142 -95t173.5 -35.5t173.5 35.5t142 95t95 142t35.5 173.5t-35.5 173.5t-95 142t-142 95t-173.5 35.5zM727 458l-256 -259v-1q-2 -1 -7 -4q-1 -1 -2 -1.5t-2 -1.5q-6 -2 -12 -2t-12 2
q-1 1 -2 1.5t-1 1.5q-6 3 -7 4v1h-1l-126 129q-9 10 -9 23t9.5 22.5t23 9t22.5 -9.5l103 -106l234 236q9 9 22.5 9t22.5 -9t9.5 -22.5t-9.5 -22.5z" />
    <glyph glyph-name="uniE60F" unicode="&#xe60f;" 
d="M730 665q0 20 14.5 34t34.5 14t34.5 -14t14.5 -34t-14.5 -34.5t-34.5 -14.5t-34.5 14.5t-14.5 34.5zM599 745q0 24 17 41t41.5 17t42 -17t17.5 -41t-17.5 -41t-42 -17t-41.5 17t-17 41zM418 771q0 28 20.5 47.5t49 19.5t48.5 -19.5t20 -47.5t-20 -48t-48.5 -20t-49 20
t-20.5 48zM196 761q0 36 26 61.5t62.5 25.5t62.5 -25.5t26 -61.5t-26 -61.5t-62.5 -25.5t-62.5 25.5t-26 61.5zM610 653h-2h-3h-3h-3h-207h-3h-3h-2h-3h-4q-60 -4 -101 -46.5t-41 -100.5q0 -39 19.5 -72.5t52.5 -53.5l3 -2q3 -2 8 -6t15 -23t13 -44.5t-6 -73.5t-33 -107
q-12 -27 -12 -56q0 -61 44.5 -104.5t107.5 -43.5q54 0 96 34v0q115 92 181.5 225t68.5 284q0 1 0.5 3t0.5 3q0 75 -53.5 128.5t-130.5 55.5z" />
    <glyph glyph-name="uniE610" unicode="&#xe610;" 
d="M633 781h-555q-10 0 -17 -7t-7 -17v-577q0 -9 7 -16t17 -7h555q9 0 16 7t7 16v577q0 10 -7 17t-16 7zM609 204h-507v529h507v-529zM967 501l-85 155q-7 13 -21 13h-156q-10 0 -17 -7t-7 -17v-265q0 -9 7 -16t17 -7h156q10 0 17 7t7 16.5t-7 16.5t-17 7h-133v217h119
l75 -137v-280h-217q-10 0 -17 -7t-7 -16.5t7 -16.5t17 -7h241q10 0 17 7t7 16v310q0 6 -3 11zM163 283h360q9 0 16 7t7 16.5t-7 16.5t-16 7h-360q-10 0 -17 -7t-7 -16.5t7 -16.5t17 -7zM327 131q-10 0 -17 -7t-7 -17q0 -30 -21.5 -51t-51.5 -21t-51.5 21t-21.5 51
q0 10 -7 17t-17 7t-17 -7t-7 -17q0 -49 35.5 -84.5t85.5 -35.5t85.5 35.5t35.5 84.5q0 10 -7 17t-17 7zM891 131q-10 0 -17 -7t-7 -17q0 -30 -21.5 -51t-51.5 -21t-51.5 21t-21.5 51q0 10 -7 17t-17 7t-17 -7t-7 -17q0 -49 35.5 -84.5t85.5 -35.5t85.5 35.5t35.5 84.5
q0 10 -7 17t-17 7z" />
    <glyph glyph-name="uniE611" unicode="&#xe611;" 
d="M512 -95q-223 0 -325 80.5t-102 247.5q0 137 93 263t224 172h220q131 -46 224 -172t93 -263q0 -167 -102 -247.5t-325 -80.5zM630 268q15 0 25.5 10.5t10.5 25.5t-10.5 26t-25.5 11h-73v1v1l86 88q17 19 -7 43q-11 11 -26 12.5t-23 -7.5l-74 -79l-80 80q-7 7 -20 5
t-23.5 -12.5t-13 -23.5t5.5 -20l81 -82q-2 -3 -3 -6h-66v0q-15 0 -25.5 -11t-10.5 -26t10.5 -25.5t25.5 -10.5v0h73v-36h-73v0q-15 0 -25.5 -10.5t-10.5 -26t10.5 -26t25.5 -10.5v0h73v-36v-9q0 -19 13 -32.5t32 -13.5t32 13.5t13 32.5q0 4 -1 9h1v36h73q15 0 25.5 11
t10.5 25.5t-10.5 25.5t-25.5 11h-73v36h73zM684 813l-7 -10h-1l-64 -81h-218l-64 81q-1 0 -2 1l-7 9l2 2q-2 6 -2 7q0 19 18 25v2q90 18 164 18q34 1 75 -4t65 -9l23 -5l1 -2q18 -6 18 -25q0 -1 -2 -6z" />
    <glyph glyph-name="uniE612" unicode="&#xe612;" 
d="M875 122zM328 740h-191q-22 0 -37 -15t-15 -37v-191q0 -22 15 -37.5t37 -15.5h191q22 0 37.5 15.5t15.5 37.5v191q0 22 -15.5 37t-37.5 15zM331 688v-191q0 -3 -3 -3h-191q-3 0 -3 3v191q0 3 3 3h191q3 0 3 -3zM327 311h-188q-22 0 -37 -15t-15 -36v-188q0 -21 15 -36
t37 -15h188q21 0 36 15t15 36v188q0 21 -15 36t-36 15zM329 260v-188q0 -3 -2 -3h-188q-3 0 -3 3v188q0 2 3 2h188q2 0 2 -2zM554 688q1 -1 3 -1h2h2h338h1h1h2q1 0 2 1q11 2 18 10t7 19t-6.5 19t-17.5 10q-2 1 -3 1h-346q-2 0 -3 -1q-11 -2 -17.5 -10t-6.5 -18.5t6.5 -19
t17.5 -10.5zM553 464q2 -2 4 -2h346q1 0 3 2q10 2 17 10t7 19t-7 19t-18 10q-1 1 -2 1h-1h-3h-337h-3h-2q-2 0 -3 -1q-10 -2 -17 -10t-7 -19t6.5 -19t16.5 -10zM553 237q2 -2 4 -2h346h1q12 1 20.5 10t8.5 21t-9 21t-21 9h-1h-341h-2h-2q-2 0 -3 -1q-10 -2 -17 -10.5t-7 -19
t6.5 -18.5t16.5 -10zM905 96h-2h-346q-2 0 -3 -1q-11 -2 -17.5 -10.5t-6.5 -19t7 -18.5t17 -11h3h1h3h340h2q12 0 21 8.5t9 21.5q0 12 -8 20.5t-20 9.5z" />
    <glyph glyph-name="uniE613" unicode="&#xe613;" 
d="M704 246q45 54 65 118q16 51 16 108q0 98 -48.5 181t-131.5 131t-180.5 48t-180.5 -48t-131.5 -131t-48.5 -181t48.5 -181t131.5 -131.5t181 -48.5q128 0 225 81l228 -228q12 -12 28 -12t27 11q11 12 11 27.5t-12 27.5zM115 474q0 127 90 217t217 90t217.5 -90t90.5 -217
t-90.5 -217.5t-217.5 -90.5t-217 90.5t-90 217.5z" />
    <glyph glyph-name="uniE614" unicode="&#xe614;" 
d="M512 807v-507h507v26q0 16 -8 63.5t-23.5 92t-52.5 100.5t-89 99t-138.5 78.5t-195.5 47.5zM464 774v-521h507q0 -6 -1 -16.5t-6.5 -41.5t-14.5 -61.5t-27.5 -72t-43 -77t-62.5 -72t-84 -62t-111.5 -41.5t-140.5 -16h-16q-11 0 -43.5 4t-64 11t-74.5 23t-79.5 37.5
t-74.5 57t-64 80t-43 108t-17 138.5v1q3 2 0 18t2 44.5t9 63.5t20.5 76t36.5 81t57 79t81.5 71t110 55.5t143.5 32.5z" />
    <glyph glyph-name="uniE615" unicode="&#xe615;" 
d="M942 546l-69 120q-6 -2 -14.5 -4t-35 -4.5t-51 -1t-56 11.5t-56.5 28t-46.5 52.5t-30.5 82.5h-141q-1 -3 -2 -8t-6 -20.5t-11.5 -30t-19 -33t-27.5 -33.5t-37.5 -28t-48.5 -19t-61.5 -5t-75.5 12q-73 -123 -74 -124q3 -2 10 -7.5t23.5 -23.5t28.5 -37t19.5 -48.5t4 -60
t-24.5 -68.5t-61 -76l75 -125q5 2 13 5t31.5 7.5t46.5 4.5t53 -8t55 -26t49 -55t39 -89h143q0 3 1.5 8.5t6.5 20.5t12 29.5t19.5 33t27.5 33t37.5 28t48 19.5t60.5 5t74 -12l70 119q-4 3 -10 9t-21.5 25.5t-26.5 40.5t-18.5 52t-4 61t23.5 67t58 72zM509.5 218
q-68.5 0 -117 48.5t-48.5 117t48.5 116.5t117 48t116.5 -48t48 -116.5t-48 -117t-116.5 -48.5zM79 542z" />
    <glyph glyph-name="uniE616" unicode="&#xe616;" 
d="M784 740h-19h-523h-1q-32 0 -54.5 -23t-22.5 -55v-542q0 -32 22.5 -55t55.5 -23h542q32 0 54.5 23t22.5 55v542q0 32 -22.5 55t-54.5 23zM723 524q-13 -76 -72.5 -127t-138 -51t-138 51t-71.5 127q-23 11 -23 35q0 16 11.5 27.5t27.5 11.5t27.5 -11.5t11.5 -27.5
q0 -20 -17 -32q12 -61 60 -101.5t111.5 -40.5t112 40.5t59.5 101.5q-16 12 -16 32q0 16 11 27.5t27 11.5t27.5 -11.5t11.5 -27.5q0 -24 -22 -35z" />
    <glyph glyph-name="uniE617" unicode="&#xe617;" 
d="M675 413h-127v127q0 15 -10.5 25.5t-25.5 10.5t-26 -10.5t-11 -25.5v-127h-127q-15 0 -25.5 -11t-10.5 -26t10.5 -25.5t25.5 -10.5h127v-127q0 -15 11 -26t26 -11t25.5 11t10.5 26v127h127q15 0 25.5 10.5t10.5 25.5t-10.5 26t-25.5 11zM511 831q-92 0 -176 -36t-145 -97
t-97 -145t-36 -176.5t36 -176.5t97 -144.5t145 -96.5t176.5 -36t176.5 36t144.5 96.5t96.5 144.5t36 176.5t-36 176.5t-96.5 145t-144.5 97t-177 36zM511 -21q-107 0 -198.5 53.5t-145 145t-53.5 199t53.5 199t145 145t199 53.5t199 -53.5t145 -145t53.5 -199t-53.5 -199
t-145 -145t-199.5 -53.5zM511 -21z" />
    <glyph glyph-name="uniE618" unicode="&#xe618;" 
d="M1022 96v9q1 28 -18 53q-25 31 -75 62q-72 44 -174 75q-55 17 -56 45q-1 34 16 54q46 57 67 141q18 73 6 141q-14 77 -66 118q-48 38 -106 38q-23 0 -47 -6q-43 -11 -73 -38q25 -12 49 -30q63 -51 80 -143q15 -77 -6 -158q-23 -93 -75 -157q-6 -8 -6 -22q9 -7 26 -12
q107 -33 183 -79q58 -35 86 -73q28 -36 27 -79v-2v-2q1 -11 -1 -22h104q44 32 56 67q4 10 3 20zM819 36q1 28 -19 53q-24 32 -74 63q-72 43 -174 75q-55 16 -56 44q-1 35 16 55q46 57 67 141q18 73 6 141q-15 76 -66 117q-48 39 -106 39q-23 0 -48 -6q-93 -24 -124 -126
q-20 -68 -4 -148q8 -43 25.5 -74.5t51.5 -71.5q4 -5 4 -6q10 -26 -7.5 -60t-45.5 -44q-46 -16 -85 -32q-77 -34 -123 -70q-45 -35 -53 -66q-3 -11 -4 -45q-1 -30 23 -50q5 -4 14.5 -10t16 -10t7.5 -4h129h221h231h118q7 5 17.5 13.5t27 31.5t14.5 42v8z" />
    <glyph glyph-name="uniE619" unicode="&#xe619;" 
d="M641 771q0 -37 -26.5 -63t-63.5 -26h-68q-37 0 -63.5 26t-26.5 63v2q0 37 26.5 63t63.5 26h68q37 0 63.5 -26t26.5 -63v-2zM986 546l5 -386q1 -102 -70 -174.5t-173 -74.5l-461 -5q-102 -2 -175 69t-74 173l-5 386q-1 102 70 175t173 74l54 1l1 -80h-12
q-84 -1 -142 -60.5t-57 -142.5l4 -317q1 -83 60.5 -141t143.5 -57l377 4q84 1 142 61t57 143l-4 316q-1 84 -60.5 142t-143.5 57h-12l-1 79l54 1q102 1 175 -70t74 -173zM760 500q0 -17 -12 -30t-30 -13l-418 -5q-18 0 -30.5 12t-12.5 30v7q0 17 12 30t30 13l418 5
q18 0 30.5 -12t12.5 -30v-7zM762 342q0 -17 -12 -29.5t-30 -13.5l-418 -5q-18 0 -30.5 12.5t-12.5 29.5v7q0 18 12 30.5t30 12.5l418 5q17 1 30 -11.5t13 -30.5v-7zM764 187q0 -17 -12 -30t-30 -13l-418 -5q-18 0 -30.5 12t-12.5 30v7q0 17 12 30t30 13l418 5q17 0 30 -12
t13 -30v-7z" />
    <glyph glyph-name="uniE61A" unicode="&#xe61a;" 
d="M668 839q0 22 -61 41q-98 30 -194 6q-136 -34 -158 -169q-12 -74 13 -176q-23 -7 -28.5 -35t8.5 -56.5t40 -37.5q3 -1 6.5 -18.5t18 -49t43.5 -61.5q11 -10 11 -35.5t-9.5 -53t-33 -51t-56.5 -29.5q-30 -5 -62 -15t-67.5 -30.5t-62 -46t-41.5 -65t-10 -85.5h971
q1 4 2.5 10.5t1.5 26t-3.5 38t-17.5 44t-36 46.5t-63 42.5t-95 34.5q-39 11 -66 31.5t-37 43t-13 45.5t0.5 38.5t8.5 20.5q37 37 58 109q22 13 38 38t15.5 54.5t-23.5 46.5q6 24 10 41t9 50t5 57t-5.5 53.5t-18.5 48.5t-38 33t-60 15z" />
    <glyph glyph-name="uniE61B" unicode="&#xe61b;" 
d="M933 819.5q10 -10.5 12 -23t-6 -20.5l-429 -428q-8 -8 -20.5 -6.5t-22.5 11.5t-12 23t6 21l429 428q7 8 20 6.5t23 -12zM834 470v-464q0 -7 -5 -12.5t-12 -5.5h-684q-7 0 -12 5.5t-5 12.5v690q0 7 5 12.5t12 5.5h461v51h-461q-28 0 -48 -20t-20 -49v-690q0 -28 20 -48.5
t48 -20.5h684q28 0 48 20.5t20 48.5v464h-51z" />
    <glyph glyph-name="uniE61C" unicode="&#xe61c;" 
d="M886 667h-747q-10 0 -17 7t-7 17t7 17t17 7h747q10 0 17 -7t7 -17t-7 -17t-17 -7zM645 763h-265q-10 0 -17 7t-7 17t7 17t17 7h265q10 0 17 -7t7 -17t-7 -17t-17 -7zM404 137v409q0 10 7 17t17 7t17 -7t7 -17v-409q0 -10 -7 -17.5t-17 -7.5t-17 7.5t-7 17.5zM573 137v409
q0 10 7 17t17 7t17 -7t7 -17v-409q0 -10 -7 -17.5t-17 -7.5t-17 7.5t-7 17.5zM235 594q10 0 17.5 -7t7.5 -17v-506q0 -20 14 -34t34 -14h409q20 0 34 14t14 34v506q0 10 7.5 17t17.5 7t17 -7t7 -17v-530q0 -30 -21.5 -51t-51.5 -21h-457q-30 0 -51.5 21t-21.5 51v366v164
q0 10 7 17t17 7zM235 594z" />
    <glyph glyph-name="uniE61D" unicode="&#xe61d;" 
d="M512 -64q-185 0 -316.5 131.5t-131.5 316.5t131.5 316.5t316.5 131.5t316.5 -131.5t131.5 -316.5t-131.5 -316.5t-316.5 -131.5zM512 768q-104 0 -192.5 -51.5t-140 -140t-51.5 -192.5t51.5 -192.5t140 -140t192.5 -51.5t192.5 51.5t140 140t51.5 192.5t-51.5 192.5
t-140 140t-192.5 51.5zM557 383l138 136q10 10 10 23t-9.5 22.5t-22.5 9.5t-23 -9l-138 -137l-137 137q-9 9 -22 9t-22.5 -9t-9.5 -22.5t9 -22.5l136 -137l-137 -136q-9 -9 -9.5 -22.5t9 -23t22.5 -9.5q14 0 23 10l138 136l138 -140q10 -9 23 -9t22.5 9.5t9.5 22.5t-9 23z
" />
    <glyph glyph-name="uniE61E" unicode="&#xe61e;" 
d="M821 681q-4 2 -8 7q-2 2 -4 3.5t-3 2.5q-20 28 -21 61q-1 27 -12 42t-35 18q-3 0 -14.5 1t-14.5 1.5t-11.5 2.5t-13 4.5t-11.5 7t-13 11.5q-8 8 -14 17.5t-9 13.5q-7 9 -13 13t-12 6t-7 3h-11q-2 -1 -9 -2.5t-10 -3.5t-8.5 -4.5t-8.5 -3.5q-37 -20 -81 -1q-3 1 -8 4t-8 5
q-1 0 -8.5 2t-11.5 4h-12l-3 -1q-13 -5 -20 -11.5t-16 -21.5q-15 -24 -37 -35q-11 -6 -18.5 -8.5t-20 -3t-20.5 -1.5q-25 -4 -34.5 -19.5t-11.5 -40.5t-6 -35q-8 -24 -32 -41q-3 -2 -10.5 -7.5t-11 -8t-8 -8t-7.5 -11.5q-2 -7 -3 -13t1 -13l3 -11q1 -3 5 -10.5t5 -9.5
q9 -20 10 -38.5t-3.5 -29.5t-10.5 -24.5t-8 -20.5q-7 -31 19 -51q6 -4 14 -9.5t14 -10.5t12 -14q13 -17 16 -39.5t6 -40t17 -27.5q11 -8 29 -9t38 -6t39 -25q6 -5 15.5 -19.5t16.5 -20.5q22 -19 55 -3q2 1 8.5 4t9 4t8 3.5t9.5 3t9.5 1t11.5 0.5q7 0 13 -1t12 -3t9.5 -3.5
t10.5 -5.5t10 -5q38 -17 64 16q17 27 22 33q17 17 37.5 21.5t39 6t30.5 10.5q8 6 15 22q2 6 2.5 27.5t9 40.5t30.5 35q2 2 7 5.5t9 6t9 7t8 9.5t5.5 11t2 13.5t-2.5 16.5q-2 5 -9 20t-10 26t-1.5 29.5t11.5 37.5q14 24 11 41.5t-11.5 25t-19.5 14.5t-12 10v0zM101 -33
l122 14q2 -4 34 -52.5t34 -50.5l141 297q-19 1 -32 8.5t-20 18.5t-15 22t-23 19.5t-38 10.5q-31 2 -42 9q-3 2 -7 7l-2 2q-2 -5 -28 -57l-54 -108q-28 -56 -32 -63q-1 -3 -11 -22.5t-18 -35.5t-9 -19v0zM759 -128q2 1 7 13l2 7l3 8l32 83l120 -16q-2 4 -19 37
q-13 25 -39.5 75t-37.5 72q-6 12 -20 37l-37 71q-2 1 -3 2q-4 -1 -14.5 -2.5t-15 -2t-13.5 -2.5t-14 -4l-12 -4q-7 -2 -11 -5t-8.5 -7.5t-7.5 -9.5q-2 -3 -5 -8t-4 -6.5t-3.5 -5t-4.5 -5.5t-5.5 -5t-7.5 -6q-24 -18 -53 -15l43 -75q3 -5 35 -61t62 -109.5t31 -55.5v0z
M759 -128z" />
    <glyph glyph-name="uniE61F" unicode="&#xe61f;" 
d="M992 544q0 2 -1 4t-1 4l-81 210q-11 32 -39 51t-64 19h-576q-36 0 -62.5 -18t-36.5 -49l-89 -215l-1 -2l-1 -2q-10 -32 -10 -61q0 -55 27.5 -101.5t75.5 -73.5v0v0q40 -22 91 -22q89 0 147 70q58 -67 146 -70q88 0 145 70q58 -70 148 -70q50 0 92 22q47 27 74 73t27 100
q-3 36 -11 61v0zM869 374q-22 -12 -59 -12q-33 0 -60.5 15.5t-43.5 43.5q-5 9 -10 14q-14 15 -34 15q-22 0 -33 -15q-5 -5 -10 -14q-17 -28 -44 -43.5t-58.5 -15.5t-59 15.5t-44.5 43.5q-5 9 -8 13q-12 15 -34.5 15t-32.5 -14q-8 -10 -10 -16q-17 -28 -44.5 -43.5
t-59.5 -15.5t-58 13v0q-30 17 -47.5 46.5t-17.5 63.5q0 23 6 42q0 1 2 3l86 210q8 22 34 22h576q29 0 37 -22l81 -208q0 -4 2 -5q6 -17 6 -42q1 -33 -16 -63t-46 -46v0zM894 259q-14 0 -24.5 -10.5t-10.5 -24.5v-195q0 -8 -6 -14.5t-13 -6.5h-659q-8 0 -13.5 6t-5.5 13v192
q0 15 -10.5 25t-25.5 10q-14 0 -24.5 -10t-10.5 -25v-192q0 -38 26 -64.5t64 -26.5h659q37 0 63.5 27t26.5 64v195q0 16 -10.5 26.5t-25.5 10.5v0zM790 509h-560q-14 0 -24.5 10.5t-10.5 24.5t10.5 24.5t24.5 10.5h560q15 0 25.5 -10.5t10.5 -24.5q0 -13 -10.5 -24
t-25.5 -11v0zM790 509z" />
    <glyph glyph-name="uniE620" unicode="&#xe620;" 
d="M863 576h-704q-40 0 -68 -28t-28 -68v-382q0 -39 28 -67.5t68 -28.5h704q39 0 67.5 28.5t28.5 67.5v382q0 40 -28.5 68t-67.5 28zM908 103q0 -21 -14.5 -35.5t-35.5 -14.5h-694q-21 0 -36 14.5t-15 35.5v372q0 21 15 36t36 15h694q21 0 35.5 -15t14.5 -36v-285v-87z
M262 596l252 148l245 -152q7 -3 14 -3q14 0 22 12q5 9 2.5 19t-11.5 16l-258 160q-13 8 -27 0l-265 -155q-10 -6 -12.5 -16t3 -19.5t15.5 -12t20 2.5zM308.5 304.5q-10.5 6.5 -22.5 10t-22.5 7t-17 9t-6.5 15.5q0 6 2.5 11t7 8t10.5 4.5t12 1.5q10 0 19 -3.5t15 -11.5l25 26
q-11 11 -25.5 15.5t-30.5 4.5q-13 0 -26 -3.5t-23 -10.5t-16.5 -18t-6.5 -27q0 -17 7 -27.5t17 -16.5t22.5 -9.5t22.5 -7.5t17 -10t7 -17q0 -6 -3 -11.5t-8 -8.5t-11 -4.5t-12 -1.5q-12 0 -22.5 5t-16.5 15l-26 -25q12 -15 29 -21t35 -6q14 0 27 4t23 11.5t15.5 19.5t5.5 27
q0 18 -6.5 28.5t-17 17zM432 397l-85 -195h39l17 45h85l18 -45h40l-84 195h-30zM415 277l31 79l30 -79h-61zM603 397h-35v-195h118v32h-83v163zM746 287h90v31h-90v48h95v31h-130v-195h135v32h-100v53z" />
    <glyph glyph-name="uniE621" unicode="&#xe621;" 
d="M123 791q-23 0 -39.5 -16t-16.5 -39.5t16.5 -39.5t39.5 -16t39.5 16t16.5 39.5t-16.5 39.5t-39.5 16zM302 702h625q14 0 23.5 10t9.5 23.5t-9.5 23.5t-23.5 10h-625q-14 0 -24 -10t-10 -23.5t10 -23.5t24 -10zM123 457q-23 0 -39.5 -16.5t-16.5 -39.5t16.5 -39.5
t39.5 -16.5t39.5 16.5t16.5 39.5t-16.5 39.5t-39.5 16.5zM927 434h-625q-14 0 -24 -9.5t-10 -23.5t10 -24t24 -10h625q14 0 23.5 10t9.5 24t-9.5 23.5t-23.5 9.5zM123 99q-23 0 -39.5 -16t-16.5 -39.5t16.5 -39.5t39.5 -16t39.5 16t16.5 39.5t-16.5 39.5t-39.5 16zM927 77
h-625q-14 0 -24 -10t-10 -23.5t10 -23.5t24 -10h625q14 0 23.5 10t9.5 23.5t-9.5 23.5t-23.5 10zM927 84z" />
    <glyph glyph-name="uniE622" unicode="&#xe622;" 
d="M798 -110h-659q-46 0 -78 32t-32 76v719q0 45 32 76.5t78 31.5h512q16 0 26.5 -10.5t10.5 -25.5t-10.5 -25.5t-26.5 -10.5h-512q-15 0 -26 -10.5t-11 -25.5v-719q0 -15 11 -25.5t26 -10.5h659q15 0 26 10.5t11 25.5v576q0 14 10.5 24.5t25.5 10.5t26 -10.5t11 -24.5v-576
q0 -44 -32.5 -76t-77.5 -32zM583 466q-15 0 -26 10.5t-11 25t11 25.5l364 357q11 11 26 11t25.5 -10.5t10.5 -25.5t-10 -25l-364 -358q-11 -10 -26 -10zM432 466h-220q-15 0 -26 10.5t-11 25t11 25.5t26 11h220q15 0 25.5 -11t10.5 -25.5t-10.5 -25t-25.5 -10.5zM651 250
h-439q-15 0 -26 10.5t-11 25.5t11 25.5t26 10.5h439q16 0 26.5 -10.5t10.5 -25.5t-10.5 -25.5t-26.5 -10.5z" />
    <glyph glyph-name="uniE623" unicode="&#xe623;" 
d="M679 797h-462q-25 0 -43 -17t-18 -41v-716q0 -24 18 -41t43 -17h585q25 0 43 17t18 41v569zM758 606h-81v94zM790 28h-560q-10 0 -10 7v693q0 7 10 7h381v-151q0 -21 14.5 -35.5t35.5 -14.5h139v-499q0 -7 -10 -7zM557 544q0 -13 -9.5 -22.5t-22.5 -9.5h-173
q-13 0 -22.5 9.5t-9.5 22.5t9.5 22.5t22.5 9.5h173q13 0 22.5 -9.5t9.5 -22.5zM708 385q0 -13 -9.5 -22.5t-22.5 -9.5h-322q-13 0 -22.5 9.5t-9.5 22.5t9.5 22.5t22.5 9.5h322q13 0 22.5 -9.5t9.5 -22.5zM708 226q0 -13 -9.5 -22.5t-22.5 -9.5h-322q-13 0 -22.5 9.5
t-9.5 22.5t9.5 22.5t22.5 9.5h322q13 0 22.5 -9.5t9.5 -22.5z" />
    <glyph glyph-name="uniE624" unicode="&#xe624;" 
d="M457 267q-14 16 -20 38l-85 -8q10 -54 45 -84q43 -35 92 -40v-45h46v45q57 7 101 48q36 34 36 84q0 44 -29 73q-12 13 -36 20.5t-72 18.5v112q34 -13 41 -41l82 9q-8 41 -39 66q-35 27 -84 32v45h-46v-45q-52 -4 -90 -38q-34 -31 -34 -76q0 -44 30 -75.5t94 -46.5v-120
q-11 5 -32 28zM489 437q-21 8 -31.5 20.5t-10.5 27.5q0 16 11.5 29t30.5 18v-95zM535 351q27 -7 44 -24q13 -14 13 -32q0 -21 -16 -36q-16 -16 -41 -20v112zM512 896q-139 0 -257 -68.5t-186.5 -186.5t-68.5 -257t68.5 -257t186.5 -186.5t257 -68.5t257 68.5t186.5 186.5
t68.5 257t-68.5 257t-186.5 186.5t-257 68.5zM512 0q-159 0 -271.5 112.5t-112.5 271.5t112.5 271.5t271.5 112.5t271.5 -112.5t112.5 -271.5t-112.5 -271.5t-271.5 -112.5z" />
    <glyph glyph-name="uniE625" unicode="&#xe625;" 
d="M835 573h-91q-22 64 -61 106q-66 69 -170 69t-170 -69q-39 -42 -62 -106h-90q-52 0 -89 -36.5t-37 -88.5v-314q0 -13 9 -22t22 -9t22 9t9 22v314q0 26 19 44.5t45 18.5h73q-9 -45 -10 -92q-21 -16 -21 -42q0 -22 15 -37t36.5 -15t36.5 15t15 37q0 26 -20 41q1 33 6 64
q3 15 6 29h369q10 -44 12 -92q-21 -16 -21 -42q0 -22 15 -37t36.5 -15t37 15t15.5 37q0 26 -21 41q-1 48 -10 93h74q26 0 43.5 -18.5t17.5 -44.5v-472q0 -26 -17.5 -43.5t-43.5 -17.5h-644q-26 0 -44.5 18t-18.5 44q0 12 -9 21t-22 9t-22 -9t-9 -22q0 -51 36.5 -87t88.5 -36
h644q52 0 87.5 36t35.5 87v472q0 52 -36 88.5t-87 36.5zM348 573q17 38 40 63q48 49 125 49t124 -49q24 -25 41 -63h-330z" />
    <glyph glyph-name="uniE626" unicode="&#xe626;" 
d="M65 384h192v-447h-192v447zM384 831h256v-894h-256v894zM767 575h192v-638h-192v638z" />
    <glyph glyph-name="uniE627" unicode="&#xe627;" 
d="M694 609l-182 -182l-182 182q-6 6 -15 6t-15 -6t-6 -15t6 -15l161 -161h-109q-9 0 -15 -6t-6 -15t6 -15t15 -6h139v-90h-127q-9 0 -15 -6t-6 -15t6 -15t15 -6h127v-132q0 -8 6.5 -14.5t15 -6.5t15 6.5t6.5 14.5v132h127q9 0 15 6t6 15t-6 15t-15 6h-127v90h139
q8 0 14.5 6t6.5 15t-6.5 15t-14.5 6h-110l161 161q6 6 6 15t-6 15t-15 6t-15 -6zM512 831q-91 0 -173.5 -35.5t-142.5 -95.5t-95.5 -142.5t-35.5 -173.5t35.5 -173.5t95.5 -142.5t142.5 -95.5t173.5 -35.5t173.5 35.5t142.5 95.5t95.5 142.5t35.5 173.5t-35.5 173.5
t-95.5 142.5t-142.5 95.5t-173.5 35.5zM512 -20q-110 0 -203 54t-147 147t-54 203t54 203t147 147t203 54t203 -54t147 -147t54 -203t-54 -203t-147 -147t-203 -54z" />
    <glyph glyph-name="uniE628" unicode="&#xe628;" 
d="M865 338q40 81 40 171q0 105 -52.5 194t-143 141t-197.5 52t-197.5 -52t-143 -141t-52.5 -194q0 -89 40 -171l-159 -272q101 -21 204 -42l136 -152l147 250q4 0 12.5 -0.5t12.5 -0.5q8 0 25 1l147 -250l136 152q46 10 97 20.5t79 15.5l28 6zM512 192q-87 0 -160.5 42.5
t-116.5 116.5t-43 161t43 161t116.5 116.5t160.5 42.5t160.5 -42.5t116.5 -116.5t43 -161t-43 -161t-116.5 -116.5t-160.5 -42.5zM257 512q0 -106 74.5 -181t180.5 -75t180.5 75t74.5 181t-74.5 181t-180.5 75t-180.5 -75t-74.5 -181z" />
    <glyph glyph-name="uniE629" unicode="&#xe629;" 
d="M883 125q4 -14 7 -36t3 -44.5t-3.5 -42.5t-10.5 -30q-5 -7 -26 -13.5t-53 -12.5q-31 -5 -71 -11q-39 -5 -77.5 -8.5t-75.5 -5t-64.5 -1.5t-63.5 2t-75 5q-38 3 -76 7t-69 9.5t-53 10t-27 9.5q-9 7 -14.5 45t4.5 99q5 35 28 53.5t53 29t63 18.5t58 25q19 12 30 23
t15.5 22.5t4.5 23.5t-1 27q-2 23 -15 35t-28 26q-8 6 -13.5 17.5t-10.5 23.5q-6 13 -10 30q-2 2 -6 7q-3 5 -7 13.5t-9 25t-6.5 29t0.5 22.5q1 11 5 19q0 35 4 71q4 30 13 64.5t30 61.5q18 26 39.5 43t44.5 26t46.5 12.5t45.5 3.5q23 -2 38 -5.5t24 -8.5t16 -12.5t14 -14.5
h19q9 0 18 -2.5t17.5 -9.5t18.5 -20q24 -31 35 -67t16 -69q6 -37 7 -74q2 -5 3 -12t1.5 -17.5t-1.5 -25.5q-2 -21 -6.5 -32.5t-9.5 -17.5q-5 -7 -11 -10q-4 -17 -9 -30q-5 -12 -11 -24q-6 -11 -14 -17q-17 -15 -28.5 -24.5t-15.5 -32.5q-3 -15 -2 -29t8 -29t21.5 -28
t41.5 -23q23 -10 51.5 -17.5t54.5 -17t46.5 -25t28.5 -39.5v0zM555 158q3 6 0.5 13t-8 13t-12.5 13h-47q-7 -7 -11 -13q-4 -5 -6.5 -11t0.5 -12q7 -13 12 -25q5 -10 11 -16q-2 -9 -6 -26t-7.5 -35t-6 -33.5t-2.5 -23.5q0 -6 4.5 -13t10.5 -14.5t13 -12.5t12 -5t12 5
t13.5 11.5t11.5 14t5 13.5t-3 20q-3 15 -7 34q-4 18 -8 35.5t-7 27.5q6 5 12 14.5t14 25.5zM555 158z" />
    <glyph glyph-name="uniE62A" unicode="&#xe62a;" horiz-adv-x="1027" 
d="M1007 356q-121 -126 -125 -301q-1 -27 -6.5 -33t-32.5 -6q-176 -5 -302 -125q-20 -19 -28 -19t-28 19q-127 120 -302 125q-27 0 -32.5 6t-6.5 33q-4 175 -125 301q-19 20 -19 28t19 28q121 126 125 302q1 26 6.5 32t32.5 6q175 5 302 125q20 19 28 19t28 -19
q127 -120 302 -125q27 0 32.5 -6t6.5 -32q4 -176 125 -302q19 -20 19 -28t-19 -28zM796 555h-191v-34q6 -1 17 -3t23 -7q11 -5 19 -11t8 -14q0 -2 -1 -10q0 -7 -4 -18q-33 -78 -53 -123q-21 -49 -44 -99q-36 80 -63 139q-31 69 -45 102q-3 7 -5 12q-1 6 -1 9q0 10 21 16.5
t37 6.5v34h-286v-34q22 -2 42.5 -15t30.5 -34q48 -107 80 -176q20 -43 91 -208h85q14 44 20 59q11 29 21 50q30 64 61 133q31 67 64 137q13 26 33 39q19 12 40 15v34z" />
    <glyph glyph-name="uniE62B" unicode="&#xe62b;" 
d="M792 -62h-560q-70 0 -119 49t-49 118v560q0 70 49 119t119 49h140l-84 -89h-45q-23 0 -56.5 -33.5t-33.5 -56.5v-537q0 -24 33.5 -57t56.5 -33h537q24 0 57 33t33 57v537q0 23 -33 56.5t-57 33.5h-44l-84 89h140q69 0 118.5 -49t49.5 -119v-560q0 -69 -49.5 -118
t-118.5 -49zM780 117h-537l89 134h359zM680 609h-124v-224h-89v224h-123l168 224z" />
    <glyph glyph-name="uniE62C" unicode="&#xe62c;" 
d="M828 700.5q-63 63.5 -145 97t-171.5 33.5t-171.5 -33.5t-145 -97t-97 -145t-34 -171.5q0 -133 72 -244q7 -11 20 -13.5t23.5 4.5t13.5 19.5t-4 23.5q-63 95 -63 210q0 104 51.5 193t140.5 140.5t193.5 51.5t193.5 -51.5t140.5 -140.5t51.5 -193.5t-51.5 -193t-140.5 -140
t-193 -51.5q-108 0 -200 55q-11 7 -23.5 3.5t-19 -14.5t-3.5 -23.5t14 -18.5q107 -65 232 -65q89 0 171 34t145 97.5t97 145t34 171.5t-34 171.5t-97 145zM494.5 690q-16.5 0 -28 -11.5t-11.5 -27.5v-284v-2v-2q2 -15 13 -24.5t27 -9.5v0h224q16 0 27.5 12t11.5 28
t-11.5 27.5t-27.5 11.5h-185v243q0 16 -11.5 27.5t-28 11.5z" />
    <glyph glyph-name="uniE62D" unicode="&#xe62d;" 
d="M715 718l-174 102q-12 7 -30 7v0v0q-17 0 -29 -7l-175 -102q-12 -7 -20.5 -22t-8.5 -29v-204q0 -14 8.5 -29t20.5 -22l175 -102q12 -7 29 -7v0v0q18 0 30 7l174 102q13 7 21.5 22t8.5 29v204q0 14 -8.5 29t-21.5 22zM370 691l112 65q12 7 29.5 7t29.5 -7l112 -65
q11 -8 -2 -16l-21 -12l-92 -53q-11 -7 -27 -7t-27 7l-91 53l-2 1l-1 1l-19 10q-12 8 -1 16zM486 409v-21q-1 -13 -12 -9l-112 65q-12 7 -20.5 22t-8.5 29v114v14q0 6 3.5 8.5t8.5 0.5l21 -12l5 -3l84 -49l19 -11q11 -7 12 -21v-127zM690 495q0 -14 -9 -29t-21 -22l-112 -65
q-11 -4 -11 9v21v127q0 14 12 21l19 11l84 49l5 3l21 12q5 2 8 -0.5t3 -8.5l1 -14v-114zM509 358l-175 102q-12 7 -29 7v0v0q-18 0 -30 -7l-175 -102q-12 -7 -20.5 -22t-8.5 -29v-204q0 -14 8.5 -29t20.5 -23l175 -101q12 -7 30 -7v0v0q17 0 29 7l175 101q12 8 20.5 23
t8.5 29v204q0 14 -8.5 29t-20.5 22zM163 330l112 66q12 7 29.5 7t29.5 -7l112 -66q11 -8 -1 -15l-22 -12l-91 -53q-12 -7 -27.5 -7t-26.5 7l-92 53l-1 1h-1l-19 11q-13 7 -2 15zM279 49v-22q0 -13 -11 -9l-112 66q-12 7 -21 22t-9 29v113v15q1 6 4 8.5t8 0.5l21 -12l5 -3
l84 -49l19 -11q12 -7 12 -22v-126zM483 135q0 -14 -8.5 -29t-21.5 -22l-111 -66q-12 -4 -12 9v22v126q1 15 12 22l19 11l84 49l5 3l21 12q5 2 8.5 -0.5t3.5 -8.5v-15v-113zM921 358l-175 102q-12 7 -29 7v0v0q-18 0 -30 -7l-174 -102q-12 -7 -21 -22t-9 -29v-204
q0 -14 9 -29t21 -22l174 -102q12 -7 30 -7v0v0q17 0 29 7l175 102q12 7 20.5 22t8.5 29v204q0 14 -8.5 29t-20.5 22zM575 331l112 65q12 7 29.5 7t29.5 -7l112 -65q12 -8 -1 -16l-22 -12l-91 -53q-11 -7 -27 -7t-27 7l-91 53l-2 1l-1 1l-19 10q-13 8 -2 16zM692 49l-1 -21
q0 -13 -11 -9l-112 65q-12 7 -21 22t-9 29v114l1 14q0 6 3 8.5t8 0.5l21 -12l5 -3l85 -49l18 -11q12 -7 13 -21v-127zM895 135q0 -14 -8.5 -29t-20.5 -22l-112 -65q-11 -4 -12 9v21v127q1 14 13 21l18 11l84 49l5 3l21 12q5 2 8.5 -0.5t3.5 -8.5v-14v-114z" />
    <glyph glyph-name="uniE62E" unicode="&#xe62e;" 
d="M608 662q11 0 19 -8.5t8 -20.5v-371q0 -12 -8 -20.5t-19 -8.5h-488q-11 0 -19 8.5t-8 20.5v371q0 12 8 20.5t19 8.5h488zM771 204q34 0 57 -24t23 -60t-23 -61.5t-57 -25.5t-58 25.5t-24 61.5q0 35 24 59.5t58 24.5zM662 205q0 -17 -7 -31.5t-14 -20.5l-6 -6h-324
q0 10 6.5 24.5t12.5 23.5l7 10h325zM202 205q34 0 57.5 -25t23.5 -60t-23.5 -60t-57 -25t-57 25t-23.5 60t23.5 60t56.5 25zM716 234h83q3 0 8.5 -1t19 -6t24 -13t19 -24.5t8.5 -38.5q1 -4 2 -9t8 -14t19 -9q3 0 7 0.5t10.5 7.5t6.5 19v178q-5 29 -22 54l-58 112
q0 3 -1.5 6.5t-6 13.5t-10 17.5t-15 14t-21.5 6.5h-79q-2 0 -5.5 0.5t-11.5 0t-14.5 -4t-12 -13.5t-5.5 -26v-210q1 0 0.5 -6t2 -15.5t6 -18t14 -15t24.5 -6.5zM694 497q0 6 6 6h110q4 0 5 -3l43 -103q1 -3 -0.5 -5.5t-4.5 -2.5h-153q-6 0 -6 6v102z" />
    <glyph glyph-name="uniE62F" unicode="&#xe62f;" 
d="M271 585q34 75 62 123q25 41 55 71t55 43.5t47 21t34 7.5l12 1q-72 30 -133 19t-112 -45.5t-86 -75.5t-55 -71t-19 -31l-113 49l63 -360l312 195zM479 200q-81 -13 -136 -15q-48 -1 -89.5 7.5t-66.5 22t-43 28.5t-25.5 24t-7.5 10q8 -52 35 -93t60.5 -64.5t77 -39.5
t78 -22t71.5 -8.5t50 -2t20 1.5l20 -122l268 249l-333 155zM814 447q23 -42 33 -83.5t8.5 -70t-6 -51t-10.5 -33.5l-6 -11q43 31 68.5 72.5t31.5 83.5t2.5 85.5t-15 81t-23.5 67t-21 46.5l-9 17l100 71l-341 132l6 -368l109 77q47 -67 73 -116z" />
    <glyph glyph-name="uniE630" unicode="&#xe630;" 
d="M210.5 644q34.5 0 58.5 -22t24 -52.5t-24 -52.5t-58.5 -22t-58.5 22t-24 52.5t24 52.5t58.5 22zM280 197q-9 -26 -14.5 -40.5t-12 -28t-28.5 -59t-49 -104.5l-126 79q16 14 40 37t70.5 73t59.5 76q15 31 4.5 52t-23 32t-15.5 11l-96 60l52 80q54 -41 72 -56t55 -52
q27 -27 28 -68.5t-17 -91.5zM964 109q-5 -47 -26 -80.5t-48.5 -49.5t-63.5 -23.5t-65.5 -7t-61 4.5t-42.5 6.5t-17 4.5l16 66l58 -15q96 -6 106 69q2 19 -1 35v326q0 92 -79 105.5t-237 -44.5l55 -6q-16 -55 -35 -55h260v-70h-141v-71h141v-36h-141v-142q0 4 12.5 9
t29.5 11.5t25 12.5l-13 52l75 23l63 -152l-92 -38l-17 61q-101 -78 -275 -73q-108 -3 -121 109q-5 42 3 80l4 12h112q0 -10 -2.5 -33t-1.5 -36.5t7 -23.5q15 -24 50 -26q2 0 -1 -5v159h-177v36h177v71h-28l-70 -71l-49 42q42 44 91 134q-28 -12 -54 -23q-29 -38 -62 -70
q1 0 -19 11t-41 23l-20 11q37 32 70 89t47 94.5t14 41.5l116 -33q-10 -23 -29 -57q94 27 172.5 36.5t128.5 5t87.5 -18.5t56.5 -30.5t30.5 -34.5t14 -27t2.5 -12q1 -6 3 -17t6 -49t5.5 -79t0 -104.5t-8.5 -127.5z" />
    <glyph glyph-name="uniE631" unicode="&#xe631;" 
d="M638 137h-254v254h-254v-445h763v445h-255v-254zM924 582h-139l60 35q27 16 34.5 46.5t-7.5 58.5l-37 66q-16 27 -45.5 35t-56.5 -8l-193 -114q-19 -11 -29 -31q-10 20 -29 31l-193 114q-27 16 -56.5 8t-45.5 -35l-37 -66q-15 -28 -7 -58.5t34 -46.5l60 -35h-139
q-13 0 -22.5 -9t-9.5 -23v-63q0 -13 9.5 -22.5t22.5 -9.5h826q14 0 23 9.5t9 22.5v63q0 14 -9 23t-23 9zM636 582h-250l-107 63l37 66l193 -114q1 2 2 3q1 -1 2 -3l193 114l37 -66z" />
    <glyph glyph-name="uniE632" unicode="&#xe632;" horiz-adv-x="1026" 
d="M653 741h-533q-2 1 -5 1t-8 -3.5t-5 -12.5v-733q-1 -14 9 -14h739q19 0 19 17v533l100 96v-697q0 -2 -0.5 -6t-3.5 -13.5t-7 -17t-12 -13.5t-18 -6h-893q-1 0 -3.5 0.5t-8.5 3t-10.5 6.5t-8.5 12t-4 20v893v4q0 3 2 10.5t5 13.5t10.5 10t17.5 4h722zM273 274l-47 -175
l175 41zM313 315l135 -137l417 419l-135 136zM765 770l136 -136l112 106q4 3 7.5 9.5t4.5 23.5t-12 30l-79 78q-4 3 -11.5 7t-26 4.5t-31.5 -11.5zM737 770z" />
    <glyph glyph-name="uniE633" unicode="&#xe633;" horiz-adv-x="1408" 
d="M1407 391l-1 1v1q-1 5 -2 7q-7 11 -20 15l-890 476q-12 7 -24 4t-18.5 -14.5t-3.5 -23.5l100 -354q3 -13 14 -19.5t23.5 -3t18.5 14.5t3 24l-80 285l783 -420l-783 -420l80 285q3 13 -3 24t-18.5 14.5t-23.5 -3t-14 -19.5l-100 -354q-3 -12 3.5 -23.5t18.5 -14.5t24 4
l890 476q13 4 20 15q1 2 2 7l1 2v7v7zM1087 352q14 0 23 9.5t9 22.5t-9 22.5t-23 9.5h-1055q-13 0 -22.5 -9.5t-9.5 -22.5t9.5 -22.5t22.5 -9.5h1055zM64 544h352q13 0 22.5 9.5t9.5 22.5t-9.5 22.5t-22.5 9.5h-352q-13 0 -22.5 -9.5t-9.5 -22.5t9.5 -22.5t22.5 -9.5z
M416 224h-352q-13 0 -22.5 -9.5t-9.5 -22.5t9.5 -22.5t22.5 -9.5h352q13 0 22.5 9.5t9.5 22.5t-9.5 22.5t-22.5 9.5zM416 224z" />
    <glyph glyph-name="uniE634" unicode="&#xe634;" 
d="M1006 520v1l-253 288q-19 23 -47 23q-29 0 -48 -23q-17 -19 -17 -48v-121h-97q-13 0 -22.5 -9.5t-9.5 -22.5t9.5 -22.5t22.5 -9.5h129q13 0 22.5 9.5t9.5 22.5v153q0 3 1 5l251 -287q2 -2 2 -6t-2 -7l-251 -287q-1 2 -1 5v167q0 13 -9.5 22.5t-22.5 9.5h-290v134
q0 29 -19 50t-45 21q-29 0 -48 -23l-252 -288q-17 -20 -17 -48t17 -48h1l251 -284q19 -23 47 -24h1q28 0 47 23q17 20 17 48v120h99q13 0 22.5 9.5t9.5 22.5t-9.5 22.5t-22.5 9.5h-131q-13 0 -22.5 -9.5t-9.5 -22.5v-152q0 -3 -1 -5l-250 284q-2 2 -2 6t2 6l250 287
q1 -2 1 -5v-166q0 -14 9.5 -23t22.5 -9h290v-135q0 -29 19 -49.5t46 -20.5q29 0 47 22l253 288v1q17 20 17 47.5t-17 47.5z" />
    <glyph glyph-name="uniE635" unicode="&#xe635;" horiz-adv-x="1200" 
d="M925 -23q106 0 180.5 75t74.5 180q0 85 -51 153q-47 63 -122 89v9q0 122 -86 208t-208 86q-73 0 -137.5 -34t-105.5 -94q-22 5 -43 5q-72 0 -126 -46.5t-65 -117.5q-85 -21 -140 -89q-58 -71 -58 -163q0 -108 76 -184q74 -74 179 -77h632zM571 -22q0 279 -4 309
q-2 19 -22 38l-1 1l-42 20h-1q-5 2 -6 6q-1 5 10 16q13 13 104 106v1q5 5 10 5q8 0 15 -7q69 -70 105 -106q10 -11 9 -16q-1 -4 -6 -6q-33 -10 -46 -21q-10 -8 -19 -35l-1 -1l1 -310h-106zM925 43h-1h-8v-1h-187v216q1 25 14 30q1 0 44 14h1q25 13 29 36t-20 47
q-50 50 -140 143h-1q-17 17 -38 17q-18 0 -32 -16q-123 -127 -142 -145q-22 -22 -18 -44q2 -11 11 -20.5t14 -12.5t9 -5l38 -14h1q11 -5 13 -33q3 -34 3 -213h-214v1h-8q-79 2 -134.5 58.5t-55.5 136.5q0 79 55 135.5t134 59.5h9l-2 11q-1 11 -1 16q0 54 38 91.5t91 37.5
q34 0 65 -18l8 -5l4 9q27 62 84 99t125 37q94 0 161.5 -67t67.5 -161q0 -28 -8 -57l-2 -9l10 -1q71 -6 120 -60q50 -53 50 -126q0 -77 -55 -132t-132 -55zM571 -22h106v-1h-106v1z" />
    <glyph glyph-name="uniE636" unicode="&#xe636;" 
d="M134 477q-29 0 -50 20.5t-21 49.5v265q0 29 21 49.5t50 20.5h658q29 0 49.5 -20.5t20.5 -49.5v-265q0 -29 -20.5 -49.5t-49.5 -20.5h-658zM127 812v-265q0 -7 7 -7h658q7 0 7 7v265q0 7 -7 7h-658q-7 0 -7 -7zM437 -81q-29 0 -49.5 20.5t-20.5 50.5v229q0 29 20.5 49.5
t49.5 20.5h129q29 0 50 -20.5t21 -49.5v-229q0 -30 -21 -50.5t-50 -20.5h-129zM430 219v-229q0 -8 7 -8h129q7 0 7 8v229q0 7 -7 7h-129q-7 0 -7 -7zM477 280v84q0 13 9 22q9 10 22 10h420v246h-86q-13 0 -22 9.5t-9 22.5t9 22.5t22 9.5h118q13 0 22 -10q10 -9 10 -22v-310
q0 -13 -10 -22q-9 -9 -22 -9l-420 -1v-52q0 -13 -9.5 -22t-22.5 -9t-22 9t-9 22zM191 720q-8 0 -13.5 5.5t-5.5 12.5q0 8 5.5 13.5t13.5 5.5h267q8 0 13.5 -5.5t5.5 -13.5q0 -7 -5.5 -12.5t-13.5 -5.5h-267zM522 720q-8 0 -13.5 5.5t-5.5 12.5q0 8 5.5 13.5t13.5 5.5h73
q8 0 13.5 -5.5t5.5 -13.5q0 -7 -5.5 -12.5t-13.5 -5.5h-73z" />
    <glyph glyph-name="uniE637" unicode="&#xe637;" 
d="M504 469v-75h21q44 0 44 38q0 37 -43 37h-22zM793 567v210q0 23 -16.5 39.5t-39.5 16.5h-448q-23 0 -39.5 -16.5t-16.5 -39.5v-210h-104v-350h104v-224q0 -23 16.5 -39.5t39.5 -16.5h448q23 0 39.5 16.5t16.5 39.5v224h104v350h-104zM737 763v-196h-448v196h448zM621 434
q0 -36 -26 -57.5t-66 -20.5h-25v-81h-50v233h80q87 0 87 -74zM262 328l-17 -53h-54l85 233h59l83 -233h-54l-17 53h-85zM513.5 -35q-11.5 0 -20 8t-8.5 20t8.5 20t20 8t19.5 -8t8 -20t-8 -20t-19.5 -8zM737 49h-448v168h448v-168zM791 376.5q-26 -21.5 -66 -20.5h-25v-81
h-50v233h80q87 0 87 -74q0 -36 -26 -57.5zM722 469h-22v-75h21q44 0 44 38q0 37 -43 37zM305 468h-1q-1 -11 -5 -20l-26 -81h62l-26 80q-3 8 -4 21z" />
    <glyph glyph-name="uniE638" unicode="&#xe638;" 
d="M992 299q-35 44 -29 99.5t49 90.5q-11 54 -34 104q-19 2 -28 5q-54 15 -82 63t-13 103q-41 37 -89 64q-12 -9 -25 -13q-52 -20 -103 2.5t-72 75.5q-54 6 -109 0q-4 -11 -13 -26q-31 -47 -85.5 -58.5t-101.5 19.5q-47 -27 -89 -64q4 -15 5 -29q3 -56 -34.5 -97.5
t-93.5 -43.5q-23 -51 -34 -105q11 -9 20 -20q36 -43 30 -99t-50 -91q11 -55 34 -104q19 -2 28 -5q55 -15 82.5 -63.5t12.5 -102.5q42 -37 89 -64q11 7 26 13q52 20 103 -3t72 -75q54 -6 109 0q4 11 13 26q31 47 85.5 58.5t101.5 -19.5q47 27 89 64q-4 15 -5 29
q-3 56 34.5 97.5t93.5 43.5q22 49 34 104q-12 10 -21 21zM924 251q0 -1 -1 -2q-69 -23 -112.5 -82.5t-44.5 -132.5l-1 -1q-70 22 -139.5 -0.5t-114.5 -81.5h-1q-44 59 -114 81.5t-140 0.5v1h-1q-2 73 -45 132.5t-112 82.5q0 1 -1 2q42 60 42 133t-42 134l1 1q71 23 114.5 82
t43.5 133q1 0 1 0.5t1 0.5q70 -21 139.5 1.5t113.5 80.5h2q44 -58 113.5 -81t139.5 -1q1 0 1 -0.5t1 -0.5q1 -73 44 -132t113 -83v-1q-43 -61 -43 -134t42 -133zM443 197q12 -12 28 -12t28 12l279 278q11 12 11 28.5t-11.5 28t-28 11.5t-27.5 -12l-223 -223q-12 -12 -28 -12
t-28 12l-111 112q-12 12 -28.5 12t-28 -12t-11.5 -28t12 -28z" />
    <glyph glyph-name="uniE639" unicode="&#xe639;" 
d="M512 830q-91 0 -173.5 -35.5t-142 -95t-95 -142t-35.5 -173.5t35.5 -173.5t95 -142t142 -95t173.5 -35.5t173.5 35.5t142 95t95 142t35.5 173.5t-35.5 173.5t-95 142t-142 95t-173.5 35.5zM755 141q-48 -48 -109 -74q-64 -27 -134 -27t-134 27q-61 26 -109 74t-74 109
q-27 64 -27 134t27 134q26 61 74 109t109 74q64 27 134 27t134 -27q61 -26 109 -74t74 -109q27 -64 27 -134t-27 -134q-26 -61 -74 -109z" />
    <glyph glyph-name="uniE63A" unicode="&#xe63a;" 
d="M947 472q17 11 21.5 20t4.5 26v136q0 28 -22.5 48t-53.5 20h-756q-32 0 -54 -20t-22 -48v-136q0 -18 4.5 -28t20.5 -18q32 -13 54 -35.5t22 -54.5q0 -68 -74 -91q-27 -15 -27 -45v-137q0 -28 22 -48t54 -20h756q31 0 53.5 20t22.5 48v137q0 17 -5.5 26t-20.5 19
q-41 19 -58 39t-17 51.5t16.5 51t58.5 39.5zM670 393q0 -5 -3.5 -8t-8.5 -3h-114v-46h114q5 0 8.5 -3t3.5 -8v-23q0 -4 -3.5 -7.5t-8.5 -3.5h-114v-79q0 -5 -3.5 -8.5t-9.5 -3.5h-25q-5 0 -8.5 3.5t-3.5 8.5v79h-114q-5 0 -8.5 3.5t-3.5 7.5v23q0 5 3.5 8t8.5 3h114v46h-114
q-5 0 -8.5 3t-3.5 8v23q0 4 3.5 7.5t8.5 3.5h96l-104 100q-8 8 0 16l16 16q8 8 16 0l115 -111l114 111q8 8 16 0l17 -16q8 -8 0 -16l-104 -100h96q5 0 8.5 -3.5t3.5 -7.5v-23zM670 393z" />
    <glyph glyph-name="uniE63B" unicode="&#xe63b;" 
d="M861 815h-731q-34 0 -57.5 -24t-23.5 -57v-731q0 -34 23.5 -57.5t57.5 -23.5h731q33 0 57 23.5t24 57.5v731q0 33 -24 57t-57 24zM300 189v206q-67 0 -98 -6v44q28 -5 68.5 -5t75.5 5q-6 -26 -6 -79v-171q13 -6 26 -14q35 -21 87.5 -30.5t135 -9.5t211.5 11
q-15 -21 -16 -51q-73 -2 -129 -2q-123 0 -192.5 10.5t-112.5 38.5q-21 14 -37 14t-35.5 -16t-47.5 -50q-14 21 -39 34q77 66 109 71zM375 518l-33 -32q-49 60 -130 110l26 33q91 -61 137 -111zM467 465q0 -110 -15.5 -167.5t-48.5 -123.5q-19 17 -46 23q44 57 57.5 116.5
t13.5 159t-6 142.5q120 -2 185.5 6.5t104.5 30.5q17 -24 38 -42q8 -6 8 -10t-4.5 -4t-9.5 1t-16 1q-32 0 -83.5 -7t-100.5 -10t-77 -3v-79h163q71 0 118 4q-27 -118 -93 -201q42 -41 109 -113l-38 -30q-47 59 -97 111q-54 -58 -138 -111q-17 22 -43 32q94 46 153 108
q-61 60 -106 94l29 30q55 -46 103 -93q48 61 68 135h-228z" />
    <glyph glyph-name="uniE63C" unicode="&#xe63c;" horiz-adv-x="1424" 
d="M580 58h704q10 0 16.5 6.5t6.5 16t-6.5 16.5t-16.5 7h-704q-9 0 -16 -7t-7 -16.5t7 -16t16 -6.5zM1353 497q10 0 17.5 -8.5t7.5 -20.5v-521q0 -12 -7.5 -21t-17.5 -9h-845q-10 0 -17.5 9t-7.5 21v521q0 12 7.5 20.5t17.5 8.5h845zM508 -128h845q29 0 50 22t21 53v521
q0 31 -21 52.5t-50 21.5h-322l-136 308q-12 28 -39 40t-55 0l-760 -335q-28 -12 -37 -41q-9 -28 3 -56l210 -476q12 -28 39 -40q14 -6 28.5 -6t26.5 6l126 55v-50q0 -31 21 -53t50 -22zM437 47l-144 -64q-9 -4 -18 1q-11 4 -16 16l-107 243l285 126v-322zM437 419l-304 -134
l-43 97l805 356l43 -98l-217 -96l-3 -2h-210q-29 0 -50 -21.5t-21 -52.5v-49zM830 542l127 56l25 -56h-152zM71 424l-23 53q-5 11 -1 22q3 11 12 14l760 336q9 4 19 -1q11 -4 16 -16l23 -53zM71 424z" />
    <glyph glyph-name="uniE63D" unicode="&#xe63d;" horiz-adv-x="1078" 
d="M1048 -63h-47v524q0 36 -26 62t-62 26h-107q-10 0 -18.5 -8.5t-8.5 -18.5t8.5 -18.5t18.5 -8.5h107q11 0 19 -8.5t8 -18.5v-524h-201v853q0 35 -26 61t-61 26h-484q-35 0 -61 -26t-26 -61v-860h-54q-10 0 -18.5 -8t-8.5 -18.5t8.5 -18.5t18.5 -8h1014q10 0 18.5 8t8.5 18
q0 11 -5.5 19t-14.5 8v0zM141 -63v860q0 10 8.5 18.5t18.5 8.5h490q10 0 18.5 -8.5t8.5 -18.5v-860h-544zM531 622h-235q-11 0 -19 -8t-8 -18t8 -18.5t19 -8.5h235q10 0 18 8.5t8 18.5t-8 18t-18 8v0zM531 414h-235q-11 0 -19 -8.5t-8 -18.5t8 -18.5t19 -8.5h235
q10 0 18 8.5t8 18.5t-8 18.5t-18 8.5v0zM531 240h-235q-11 0 -19 -8.5t-8 -18.5q0 -13 6.5 -23.5t20.5 -10.5h235q10 0 18 8.5t8 18.5q0 11 -8.5 22.5t-17.5 11.5v0zM531 240z" />
    <glyph glyph-name="uniE63E" unicode="&#xe63e;" horiz-adv-x="1366" 
d="M1263 896h-1161q-42 0 -72 -30t-30 -72v-820q0 -42 30 -72t72 -30h1161q42 0 72 30t30 72v820q0 42 -30 72t-72 30zM1297 -26q0 -14 -10 -24t-24 -10h-1161q-14 0 -24 10t-10 24v820q0 14 10 24t24 10h1161q14 0 24 -10t10 -24v-820zM273 623h819v-68h-819v68zM273 247
h341v-68h-341v68z" />
    <glyph glyph-name="uniE63F" unicode="&#xe63f;" 
d="M525 631q33 42 70 74q32 27 72 49t84 19q62 -5 104 -29q41 -25 65 -62q25 -38 34 -85q8 -47 5 -97q-2 -50 -16.5 -95.5t-36.5 -84.5q-21 -39 -47 -73q-25 -32 -52 -60q-40 -41 -83 -76q-44 -36 -83 -61q-40 -26 -72 -40q-32 -15 -50 -15q-19 -1 -51 14q-30 14 -67 40
q-37 25 -78 60q-39 34 -81 74q-26 26 -56 58q-29 32 -56 72q-26 40 -45 85.5t-21 97.5t11 97t39 81t63.5 60.5t85.5 34.5q24 5 48 1.5t47 -12t44 -21.5t40 -27q44 -33 83 -79zM525 631z" />
    <glyph glyph-name="uniE640" unicode="&#xe640;" 
d="M848 48q-12 -12 -29 -12h-615q-16 0 -28 12t-12 28v616q0 16 12 28t28 12h615q17 0 29 -12t12 -28v-616q0 -16 -12 -28zM798 629q0 17 -11.5 29.5t-29.5 12.5h-491q-17 0 -29 -12.5t-12 -29.5v-344q0 -21 10 -39t29 -32t45 -23q27 -8 60 -9q46 0 75 13t50 33q22 20 40 44
t44 45q25 21 62.5 35t96.5 15h12h5h2q1 0 4 -0.5t5 -0.5q8 0 33 1v262zM505 444q-8 -18 -21.5 -31.5t-32.5 -21.5q-18 -7 -38.5 -7t-38.5 7q-19 8 -32 22q-14 13 -21.5 31t-7.5 38q0 22 7.5 40.5t21 32t32 21t39 7.5t39 -7.5t31.5 -21.5q14 -13 21.5 -31.5t7.5 -40.5
q0 -20 -7 -38z" />
    <glyph glyph-name="uniE641" unicode="&#xe641;" 
d="M776 775h-528q-44 0 -75.5 -31.5t-31.5 -76.5v-477v-89q0 -45 31.5 -76.5t75.5 -31.5h349v0h179q44 0 75.5 31.5t31.5 76.5v566q0 45 -31.5 76.5t-75.5 31.5zM248 724h528q23 0 39.5 -16.5t16.5 -40.5v-369l-110 136q-7 8 -18 9t-19 -7l-200 -180l-71 119q-6 10 -17 12
t-20 -5l-185 -140v425q0 24 16.5 40.5t39.5 16.5zM192 101v77l193 146l72 -120v-1l95 -159h-304q-23 0 -39.5 16.5t-16.5 40.5zM776 44h-164l-100 168l187 168l133 -163v-116q0 -24 -16.5 -40.5t-39.5 -16.5zM392 475q41 0 70.5 29.5t29.5 70.5t-29.5 70t-70.5 29t-70 -29
t-29 -70t29 -70.5t70 -29.5zM392 623q20 0 34 -14t14 -34t-14 -34t-34 -14t-34 14t-14 34t14 34t34 14z" />
    <glyph glyph-name="uniE642" unicode="&#xe642;" 
d="M512 -67q-91 0 -174.5 35.5t-143.5 96t-95.5 144t-35.5 175.5t35.5 175.5t95.5 144t143.5 96t174.5 35.5t174.5 -35.5t143.5 -96t95.5 -144t35.5 -175.5t-35.5 -175.5t-95.5 -144t-143.5 -96t-174.5 -35.5zM512 779q-107 0 -197.5 -53t-143 -144t-52.5 -198t52.5 -198
t143 -144t197.5 -53t197.5 53t143 144t52.5 198t-52.5 198t-143 144t-197.5 53zM525 202q-2 -7 -7 -11q-8 -8 -20 -7.5t-20 8.5l-128 119q-8 9 -7.5 20.5t9 19.5t20 7.5t19.5 -8.5l100 -93l180 312q6 10 17 13t21 -2.5t13 -17t-2 -21.5z" />
  </font>
</defs>
</svg>
